Forum

You need to log in to create posts and topics.

The Fate of the Furious (2017) 720p BluRay x264 [Dual-Audio][English DD 5.1 + Hindi DD 5.1] - Mafiaking - M2Tv torrent

Info hash: 4AC31A7C3BDEBEB47289602BAA4B0A264CA28BB9

Quote:


Ratings: 6.8/10

Genere: Action, Adventure, Crime

General
Complete name : The Fate of the Furious (2017) 720p BluRay x264 [Dual-Audio][English DD 5.1 + Hindi DD 5.1] - Mafiaking - M2Tv.mkv
Format : Matroska
File size : 1.33 GiB
Duration : 2 h 15 min
Overall bit rate : 1 400 kb/s
Movie name : The Fate of the Furious (2017) 720p BluRay x264 [Dual-Audio][English DD 5.1 + Hindi DD 5.1] - Mafiaking - M2Tv

Video
ID : 1
Format : AVC
Format/Info : Advanced Video Codec
Format profile : [email protected]
Format settings, CABAC : Yes
Format settings, RefFrames : 4 frames
Codec ID : V_MPEG4/ISO/AVC
Duration : 2 h 15 min
Bit rate : 950 kb/s
Width : 1 280 pixels
Height : 536 pixels
Display aspect ratio : 2.40:1
Frame rate mode : Constant
Frame rate : 23.976 (24000/1001) FPS
Color space : YUV
Chroma subsampling : 4:2:0
Bit depth : 8 bits
Scan type : Progressive
Bits/(Pixel*Frame) : 0.058
Stream size : 924 MiB (68%)
Title : Mafiaking
Language : English
Default : Yes
Forced : No

Audio #1
ID : 2
Format : AC-3
Format/Info : Audio Coding 3
Format settings, Endianness : Big
Codec ID : A_AC3
Duration : 2 h 15 min
Bit rate mode : Constant
Bit rate : 224 kb/s
Channel(s) : 6 channels
Channel positions : Front: L C R, Side: L R, LFE
Sampling rate : 48.0 kHz
Frame rate : 31.250 FPS (1536 SPF)
Bit depth : 16 bits
Compression mode : Lossy
Stream size : 218 MiB (16%)
Title : Mafiaking
Language : Hindi
Service kind : Complete Main
Default : Yes
Forced : No

Audio #2
ID : 3
Format : AC-3
Format/Info : Audio Coding 3
Format settings, Endianness : Big
Codec ID : A_AC3
Duration : 2 h 15 min
Bit rate mode : Constant
Bit rate : 224 kb/s
Channel(s) : 6 channels
Channel positions : Front: L C R, Side: L R, LFE
Sampling rate : 48.0 kHz
Frame rate : 31.250 FPS (1536 SPF)
Bit depth : 16 bits
Compression mode : Lossy
Stream size : 218 MiB (16%)
Title : Mafiaking
Language : English
Service kind : Complete Main
Default : No
Forced : No

SAMPLE WITH IN TORRENT

**To View Image In Full Size Click on Thumbnails** 

              

Magnet Link

Uploaded files:
  • You need to login to have access to uploads.
Avinandan Jana Pvt. Ltd. © 2017 Designed by Avinandan Jana
Yes No